#TITLE:Sabre Dance;
#SUBTITLE:;
#ARTIST:Khatchaturian;
#TITLETRANSLIT:;
#SUBTITLETRANSLIT:;
#ARTISTTRANSLIT:;
#CREDIT:;
#BANNER:Sabre Dance.PNG;
#BACKGROUND:Sabre Dance-bg.PNG;
#LYRICSPATH:;
#CDTITLE:bwtitle.PNG;
#MUSIC:Sabre Dance.mp3;
#OFFSET:-0.126;
#SAMPLESTART:5.190;
#SAMPLELENGTH:8.900;
#SELECTABLE:YES;
#DISPLAYBPM:185.000;
#BPMS:0.000=185.940;
#STOPS:288.000=1.000
;
#BGCHANGES:;
// cache tags:
#FIRSTBEAT:8.000;
#LASTBEAT:288.000;
#SONGFILENAME:Songs/Music V.I.P ^_^/Sabre dance/Sabre Dance.sm;
#HASMUSIC:1;
#HASBANNER:1;
#MUSICLENGTH:97.608;
// end cache tags

//---------------dance-single - ----------------
#NOTES:
     dance-single:
     :
     Challenge:
     10:
     0.694,0.775,0.563,0.266,0.149,393.000,55.000,26.000,0.000,0.000:
0000
0000
0000
0000
,
0000
0000
0000
0000
,
1000
0010
1000
0001
,
0100
0010
1000
0001
,
0000
0100
0010
0100
1000
0100
0001
0100
,
0010
0100
0001
0100
1000
0100
0010
0100
,
0010
1000
0010
0000
1000
0000
1000
0000
0100
1000
0100
0000
0010
0000
0010
0000
,
0001
0100
0001
0000
1000
0000
1000
0000
0100
0010
0100
0000
1000
0000
1000
0000
,
1000
0001
0010
0100
1000
0100
0010
0001
,
1001
1100
0110
1100
,
0110
0101
0110
1100
,
0001
0010
0100
0010
0001
0010
1000
0010
,
0100
0010
1000
0010
0001
0010
0100
0010
,
0001
0100
0001
0000
1000
0000
1000
0000
0010
1000
0010
0000
0100
0000
0100
0000
,
0001
0010
0001
0000
0100
0000
0100
0000
0010
0100
0010
0000
1000
0000
1000
0000
,
1000
1000
0100
0010
0001
0010
0100
1000
,
1001
0011
0110
0011
,
0110
1010
0110
0011
,
1000
0001
1000
0001
,
1000
0001
1000
0000
0001
1000
0001
0000
1000
0000
1000
0000
1000
0000
1000
0000
,
0000
1000
0100
0001
0100
1000
0010
0001
,
0010
0100
1000
0100
0001
1000
0010
0001
,
0010
1000
0001
0000
0100
0000
0010
0000
1000
0001
0100
0000
0001
0000
1000
0000
,
0100
1000
0010
0000
0100
0000
0001
0000
0010
0100
1000
0000
0010
0000
0100
0000
,
1000
0100
0001
1000
0010
0001
0010
1000
,
0100
0011
1100
0011
,
1010
0101
1010
1001
,
0120
0000
0000
0000
,
2030
0000
3002
0000
0203
0000
0000
0301
,
2000
3020
0000
0000
,
1030
0000
0000
0001
2000
0000
0000
0000
0002
0000
0000
0000
3000
0000
0000
0000
,
2003
0000
3200
0000
0320
0000
0000
0031
,
2000
3002
0000
0000
,
2000
0000
0003
0000
,
3002
0023
0230
0000
,
1300
0200
0000
0000
,
0010
0300
2000
0010
,
0000
0000
0000
0000
3020
0000
0000
0031
,
2000
0002
3003
0000
,
0011
0000
0101
0000
,
1100
0000
1010
0000
,
1000
0100
0001
0100
1000
0000
1000
0010
,
0001
0000
1000
0100
0001
0000
1000
0001
,
0020
0000
0000
0000
,
2000
0000
0000
3030
,
0010
0001
0010
0000
0000
0000
0000
0000
0100
1000
0100
0000
0000
0000
0000
0000
,
0010
0100
0010
0000
0000
0000
0000
0000
0001
1000
0001
0000
0000
0000
0000
0000
,
2002
0000
0000
0000
,
0000
0000
0000
0000
,
3003
1000
1000
0100
0100
0010
0010
0001
,
0001
0000
0001
0001
0010
0010
0100
0100
,
1100
0000
0000
1001
0000
0000
0101
0000
,
1100
0000
0000
1010
0000
0000
0110
0000
,
0100
0010
0001
0010
0100
1000
0100
0010
,
0001
1100
0110
0101
,
0110
1001
1100
0101
,
1000
0100
0001
0100
1000
0010
0001
1000
,
0100
0001
0100
1000
0100
0001
0010
0100
,
1000
0100
1000
0000
0100
0000
0010
0000
0001
0010
0001
0000
0010
0000
0100
0000
,
1000
0100
1000
0000
0100
0000
0010
0000
0001
0010
0001
0000
0010
0000
0100
0000
,
1000
1000
0100
0010
0001
0001
0010
0100
,
1001
1100
0101
0110
,
0011
0000
0000
0000
0110
0000
0000
0000
1001
0000
0000
0000
1000
0100
1000
0100
,
1000
0000
0000
0000
0011
0000
0000
0000
1100
0000
0000
0000
0001
0010
0001
0010
,
0001
0000
0000
0000
1100
0000
0000
0000
0011
0000
0000
0000
1000
0100
1000
0100
,
1000
0100
0001
0100
1000
0010
0001
0010
,
1000
0100
0001
0100
0010
0001
0100
1000
,
0100
0010
1000
0010
0001
1000
0100
0001
,
0100
1000
0100
0010
1000
0100
0001
0100
,
1001
0000
0000
0000
,
1000
0100
0010
0100
0001
0100
1000
0100
,
1000
0010
0001
0010
1000
0100
0001
0100
,
1001
0000
0000
0000
;

//---------------dance-single - Copied from----------------
#NOTES:
     dance-single:
     Copied from:
     Hard:
     8:
     0.626,0.664,0.738,0.266,0.005,330.000,72.000,26.000,0.000,0.000:
0000
0000
0000
0000
,
0000
0000
0000
0000
,
1000
0010
1000
0001
,
0100
0010
1000
0001
,
0000
1000
0010
0100
0001
0100
0001
0100
,
0010
0100
0001
0100
0010
1000
0010
0100
,
1100
0100
0110
0100
,
0101
0001
0101
0010
,
1000
0001
0010
0100
1000
0100
0010
0001
,
1000
1100
0110
1100
,
0110
0101
0110
1100
,
0001
0010
0100
0010
0001
1000
0100
0010
,
0100
0010
0100
1000
0001
0010
0100
0010
,
0101
1000
1010
1000
,
1001
0000
0001
0000
0101
0000
1000
0010
,
1000
0010
0100
0001
0010
0100
1000
0001
,
0010
0011
0110
0011
,
0110
1010
0110
0011
,
1000
0001
1000
0001
,
1000
0000
0001
0000
1000
0100
1000
0001
,
0000
1000
0100
0010
0100
1000
0010
0100
,
0010
0100
0001
0100
0001
1000
0010
1000
,
1010
1000
1100
0100
,
0101
0000
0001
0000
0011
0000
0010
0100
,
1000
0100
0010
0001
0010
0001
1000
0100
,
0001
0011
1100
0011
,
1010
0101
1010
1001
,
0120
0000
0000
0000
,
2030
0000
3002
0000
0203
0000
0000
0301
,
2000
3020
0000
0000
,
1030
0000
0000
0001
2000
0000
0000
0000
0002
0000
0000
0000
3000
0000
0000
0000
,
2003
0000
3200
0000
0320
0000
0000
0031
,
2000
3002
0000
0000
,
2000
0000
0003
0000
,
3002
0023
0230
0000
,
1300
0200
0000
0000
,
0010
0300
2000
0010
,
0000
0000
0000
0000
3020
0000
0000
0031
,
2000
0002
3003
0000
,
0011
0000
0101
0000
,
1100
0000
1010
0000
,
1000
0100
1000
0100
1000
0000
1000
0100
,
0001
0000
1000
0100
0001
0000
1000
0001
,
0020
0000
0000
0000
,
2000
0000
0000
3030
,
0110
0000
1100
0000
,
0011
0000
1001
0000
,
2002
0000
0000
0000
,
0000
0000
0000
0000
,
3003
1000
0010
0100
0001
0010
0100
1000
,
1000
0000
0001
0100
0010
1000
0100
0100
,
1100
0000
0000
1001
0000
0000
0101
0000
,
1100
0000
0000
1010
0000
0000
0110
0000
,
1000
0100
0010
0001
0010
0100
1000
0100
,
0010
1100
0110
0101
,
0110
1001
1100
0101
,
0010
0100
0001
0100
0010
1000
0001
1000
,
0100
0010
0100
1000
0100
1000
0010
0100
,
0101
0010
1100
0010
,
1001
0000
0100
0000
0011
0000
0001
1000
,
0001
0010
0001
0100
0001
0010
0001
0100
,
0101
1100
0101
0110
,
0011
0000
0110
0000
1001
0000
1000
0100
,
1000
0000
0011
0000
1100
0000
0001
0010
,
0001
0000
1100
0000
0011
0000
1000
0100
,
1000
0100
0010
0100
1000
0010
0100
0010
,
1000
0001
0010
0100
0010
0001
0100
0010
,
0100
0010
1000
0010
0100
0001
0100
0001
,
0100
0010
0100
0001
1000
0100
0001
0100
,
1000
0000
0000
0000
,
1000
0100
0010
0001
1000
0100
0010
0001
,
0010
0100
1000
0001
0010
0100
1000
0001
,
1001
0000
0000
0000
;

//---------------dance-single - Copied from----------------
#NOTES:
     dance-single:
     Copied from:
     Edit:
     10:
     1.000,1.000,1.000,0.348,0.231,481.000,177.000,34.000,0.000,1.000:
0000
0000
0000
0000
,
0000
0000
0000
0000
,
2000
0000
0020
3000
2000
0030
0002
3000
,
0200
0003
0020
0300
2000
0030
0002
3000
,
0003
0100
0010
0100
1000
0100
0001
0100
,
0010
0100
0001
0100
1000
0100
0010
0100
,
0010
1000
0010
0000
1100
0000
1010
0000
0100
1000
0100
0000
1010
0000
0110
0000
,
0001
0100
0001
0000
1001
0000
1010
0000
0100
0010
0100
0000
0010
0000
0001
0000
,
1100
1001
0011
0110
1001
0110
1010
0101
,
1001
1100
0110
1100
,
0110
0101
0110
1100
,
0001
0010
0100
0010
0001
0010
1000
0010
,
0100
0010
1000
0010
0001
0010
0100
0010
,
0001
0100
0001
0000
1100
0000
1001
0000
0010
1000
0010
0000
1100
0000
0011
0000
,
0001
0010
0001
0000
0110
0000
0101
0000
0010
0100
0010
0000
0100
0000
0001
0000
,
1010
1001
0110
1010
0011
1010
0101
1010
,
1001
0011
0110
0011
,
0110
1010
0110
0011
,
1000
0001
1000
0001
,
1000
0001
1000
0001
1000
0001
1000
0001
1000
0001
1000
0001
1000
0001
1000
0000
,
0000
1000
0100
0001
0100
1000
0010
0001
,
0010
0100
1000
0100
0001
1000
0010
0001
,
0010
1000
0001
0000
0110
0000
1001
0000
1000
0001
0100
0000
0101
0000
1010
0000
,
0100
1000
0010
0000
1100
0000
0011
0000
0010
0100
1000
0000
0010
0000
0100
0000
,
1010
1100
0101
1001
0110
1001
0011
1010
,
1100
0011
1100
0011
,
1010
0101
1010
1001
,
0120
0100
0100
0100
0100
0100
0100
0100
,
2030
0100
3002
0100
0203
0001
0001
0301
,
2000
0010
3020
0001
0001
0001
0001
0001
,
1030
0000
0000
0001
2000
0000
0000
0000
0002
0000
3100
0000
0100
0000
0100
0000
,
2003
0100
3200
0010
0320
0001
0001
0031
,
2000
0100
3002
0010
0010
0010
0010
0010
,
2003
0010
0010
0010
0010
0010
0010
0010
,
3002
0010
0023
0100
0230
1000
1000
1000
,
1300
0100
0200
0001
0010
0001
0010
0001
,
0010
0001
0310
0100
2000
0100
0010
0001
,
0010
0100
0010
0001
3020
0100
0001
0100
,
2030
0100
0002
3003
0001
0000
0001
0000
,
0011
0000
0000
0000
0010
1000
0010
0000
0101
0000
0000
0000
0010
0001
0010
0000
,
1100
0000
0000
0000
0100
0001
0100
0000
1010
0000
0000
0000
0000
0000
0000
0000
,
1010
0100
0001
0100
1000
0000
1100
0010
,
0001
0000
1010
0100
0001
0000
1010
0001
,
1020
0000
0000
0000
,
2000
0000
0000
3030
,
0011
0001
0010
0000
0000
0000
0000
0000
1100
1000
0100
0000
0000
0000
0000
0000
,
0110
0100
0010
0000
0000
0000
0000
0000
1001
1000
0001
0000
0000
0000
0000
0000
,
2002
0000
0000
0000
,
0000
0000
0000
0000
,
3003
1010
1001
0110
1100
0011
0110
1001
,
0101
0000
0001
0001
0010
0010
0100
0100
,
1100
0000
0001
1001
0000
0100
0101
0000
,
1100
0000
0100
1010
0000
0001
0110
0000
,
1100
0011
1010
0011
0110
0101
1100
0101
,
1001
1100
0110
0101
,
0110
1001
1100
0101
,
1000
0100
0001
0100
1000
0010
0001
1000
,
0100
0001
0100
1000
0100
0001
0010
0100
,
1000
0100
1000
0000
0101
0000
1010
0000
0001
0010
0001
0000
0110
0000
1001
0000
,
1000
0100
1000
0000
1100
0000
0011
0000
0001
0010
0001
0000
0010
0000
0100
0000
,
1100
1001
0110
1010
0101
0011
0011
0110
,
1001
1100
0101
0110
,
0011
0000
0000
0000
0110
0000
0000
0000
1001
0000
0000
0000
1000
0100
0001
0100
,
1000
0000
0000
0000
0011
0000
0000
0000
1100
0000
0000
0000
0001
0010
1000
0010
,
0001
0000
0000
0000
1100
0000
0000
0000
0011
0000
0000
0000
1000
0100
0001
0100
,
1000
1100
0011
0110
1010
0110
1001
0011
,
1010
1100
0011
1100
0110
0011
0101
1010
,
0101
1001
1010
0110
0101
1001
0110
0101
,
1010
1010
0101
0110
1001
1100
0101
0110
,
1001
0000
0000
0000
,
1010
1100
0011
1100
0011
0101
1100
0110
,
1000
0100
0010
0001
1000
0100
0010
0001
1000
0100
0010
0001
1000
0100
0010
0001
,
1001
0000
0000
0000
;
